设为首页收藏本站

ZMX - IT技术交流论坛 - 无限Perfect,追求梦想 - itzmx.com

 找回密码
 注册论坛

QQ登录

只需一步,快速开始

新浪微博账号登陆

只需一步,快速开始

用百度帐号登录

只需两步,快速登录

搜索
查看: 262|回复: 4

ShanaEncoder请教:VC1(wmv3)格式的文件不能转化成H265吗?

[复制链接]

签到天数: 5 天

[LV.2]偶尔看看I

发表于 2021/9/2 02:20 | 显示全部楼层 |阅读模式
天涯海角搜一下: 百度 谷歌 360 搜狗 有道 雅虎 必应 即刻

想请教一下,SE是无法转化VC1(wmv3)和265吗,现在我遇到了两个错误,
一个视频错误是无法转化,错误日志贴在下面了
另一个视频可以转化,但是转好的视频在拖动进度条的时候,有明显的卡顿感。
同样的设置压别的片都没问题的
这两个都是VC1格式

还有想请教,rmvb是不是也不支持压缩啊,有几个旧片,想转化成体积更小的265,但都是直接报错……
谢谢


[wmv3 @ 000001d3b4125b00] Extra data: 8 bits left, value: 0
Guessed Channel Layout for Input Stream #0.1 : stereo
[wmv3 @ 000001d3b4128600] Extra data: 8 bits left, value: 0
Stream mapping:
  Stream #0:0 -> #0:0 (wmv3 (native) -> hevc (libx265))
  Stream #0:1 -> #0:1 (copy)
x265 [info]: HEVC encoder version 3.4+33-5fa76b3fc
x265 [info]: build info [Windows][GCC 5.4.0][64 bit] 8bit+10bit
x265 [info]: using cpu capabilities: MMX2 SSE2Fast LZCNT SSSE3 SSE4.2 AVX FMA3 BMI2 AVX2
x265 [info]: Main profile, Level-3.1 (Main tier)
x265 [info]: Thread pool created using 12 threads
x265 [info]: Slices                              : 1
x265 [info]: frame threads / pool features       : 3 / wpp(12 rows)
x265 [info]: Coding QT: max CU size, min CU size : 64 / 8
x265 [info]: Residual QT: max TU size, max depth : 32 / 1 inter / 1 intra
x265 [info]: ME / range / subpel / merge         : hex / 57 / 1 / 2
x265 [info]: Keyframe min / max / scenecut / bias  : 25 / 250 / 40 / 5.00
x265 [info]: Lookahead / bframes / badapt        : 15 / 4 / 0
x265 [info]: b-pyramid / weightp / weightb       : 1 / 1 / 0
x265 [info]: References / ref-limit  cu / depth  : 2 / on / on
x265 [info]: AQ: mode / str / qg-size / cu-tree  : 2 / 1.0 / 32 / 1
x265 [info]: Rate Control / qCompress            : CRF-23.0 / 0.60
x265 [info]: tools: rd=2 psy-rd=2.00 early-skip rskip mode=1 signhide tmvp
x265 [info]: tools: fast-intra strong-intra-smoothing lslices=4 deblock sao
[mp4 @ 000001d3b41be240] Could not find tag for codec wmav2 in stream #1, codec not currently supported in container
Could not write header for output file #0 (incorrect codec parameters ?): Invalid argument
Error initializing output stream 0:0 --
encoded 0 frames
Conversion failed!


文件信息
General
Format                         : Windows Media
File size                      : 5.16 GiB
Duration                       : 1 h 58 min
Overall bit rate mode          : Variable
Overall bit rate               : 6 211 kb/s
Maximum Overall bit rate       : 20.4 Mb/s
Encoded date                   : UTC 2011-03-01 04:45:41

Video
ID                             : 1
Format                         : VC-1
Format profile                 : MP@HL
Codec ID                       : WMV3
Codec ID/Info                  : Windows Media Video 9
Codec ID/Hint                  : WMV3
Description of the codec       : Windows Media Video 9 - Professional
Duration                       : 1 h 58 min
Bit rate mode                  : Variable
Bit rate                       : 6 000 kb/s
Width                          : 1 280 pixels
Height                         : 720 pixels
Display aspect ratio           : 16:9
Frame rate                     : 29.970 (29970/1000) FPS
Color space                    : YUV
Chroma subsampling             : 4:2:0
Bit depth                      : 8 bits
Scan type                      : Progressive
Compression mode               : Lossy
Bits/(Pixel*Frame)             : 0.217
Stream size                    : 4.98 GiB (97%)
Language                       : Japanese

Audio
ID                             : 2
Format                         : WMA
Format version                 : Version 2
Codec ID                       : 161
Codec ID/Info                  : Windows Media Audio
Description of the codec       : Windows Media Audio 9.2 - VBR Quality 98, 48 kHz, stereo 1-pass VBR
Duration                       : 1 h 58 min
Bit rate mode                  : Variable
Bit rate                       : 193 kb/s
Channel(s)                     : 2 channels
Sampling rate                  : 48.0 kHz
Bit depth                      : 16 bits
Stream size                    : 164 MiB (3%)
Language                       : Japanese

欢迎光临IT技术交流论坛:http://bbs.itzmx.com/
回复

使用道具 举报

 成长值: 27885

签到天数: 3624 天

[LV.Master]伴坛终老

发表于 2021/9/2 11:44 | 显示全部楼层 |Google Chrome 92.0.4515.159|Windows 10
看了你提供的日志信息,是提示无法进行解码,WMV3我记得不能硬解,你看看是不是开启了硬解加速?

如果你开了硬解加速,那在 shanaapp.xml 文件中关闭试一下?配置文件中以下所有字段,全部从True改为False
  <DXVA2ToolStripMenuItem>False</DXVA2ToolStripMenuItem>
  <D3D11VAToolStripMenuItem>False</D3D11VAToolStripMenuItem>
  <CUDAToolStripMenuItem>False</CUDAToolStripMenuItem>
  <QSVToolStripMenuItem>False</QSVToolStripMenuItem>


包括你说的rmvb,这几个格式都是无法进行硬解码,估计都是和上方说的这个有关系
欢迎光临IT技术交流论坛:http://bbs.itzmx.com/
回复 支持 反对

使用道具 举报

签到天数: 90 天

[LV.6]常住居民II

发表于 2021/9/2 12:34 | 显示全部楼层 |Google Chrome 86.0.4240.198|Windows 10
本帖最后由 741861943 于 2021/9/2 13:45 编辑

mp4不支持复制wma或pcm格式音频,改音频编码或选mkv,rmvb也要改为音频编码,卡顿可能是快速设置里没勾选开起关键帧
欢迎光临IT技术交流论坛:http://bbs.itzmx.com/
回复 支持 反对

使用道具 举报

签到天数: 5 天

[LV.2]偶尔看看I

 楼主| 发表于 2021/9/2 18:05 | 显示全部楼层 |Google Chrome 86.0.4240.198|Windows 10
小樱 发表于 2021/9/2 11:44
看了你提供的日志信息,是提示无法进行解码,WMV3我记得不能硬解,你看看是不是开启了硬解加速?

如果你 ...

谢谢回复,不过我没有开启硬件解码,都是软解的
欢迎光临IT技术交流论坛:http://bbs.itzmx.com/
回复 支持 反对

使用道具 举报

签到天数: 5 天

[LV.2]偶尔看看I

 楼主| 发表于 2021/9/2 19:09 | 显示全部楼层 |Google Chrome 86.0.4240.198|Windows 10
741861943 发表于 2021/9/2 12:34
mp4不支持复制wma或pcm格式音频,改音频编码或选mkv,rmvb也要改为音频编码,卡顿可能是快速设置里没勾选开 ...

谢谢,按你说的选重新压制就好了,而不是选复制,的确是音频问题

卡顿的问题经过我反复试验,可能是因为源wmv的进度条就有问题,压制成MP4并不会重新制作进度条,反而会加重
欢迎光临IT技术交流论坛:http://bbs.itzmx.com/
回复 支持 反对

使用道具 举报

您需要登录后才可以回帖 登录 | 注册论坛 新浪微博账号登陆用百度帐号登录

本版积分规则

手机版|Archiver|Mail me|网站地图|IT技术交流论坛 ( 闽ICP备13013206号-7 )

GMT+8, 2021/12/5 07:37 , Processed in 0.163194 second(s), 22 queries , MemCache On.

Powered by itzmx! X3.4

© 2011- sakura

快速回复 返回顶部 返回列表