设为首页收藏本站

ZMX - IT技术交流论坛 - 无限Perfect,追求梦想 - itzmx.com

 找回密码
 注册论坛

QQ登录

只需一步,快速开始

新浪微博账号登陆

只需一步,快速开始

用百度帐号登录

只需两步,快速登录

搜索
查看: 1882|回复: 12

[日漫] 가타리 시리즈〈物語〉シリーズ 全集 [Moozzi2] 物语系列(化物语

[复制链接]
 成长值: 26060

签到天数: 3259 天

[LV.Master]伴坛终老

发表于 2019/5/1 00:21 | 显示全部楼层 |阅读模式 |Google Chrome 74.0.3729.108|Windows 10
天涯海角搜一下: 百度 谷歌 360 搜狗 有道 雅虎 必应 即刻
가타리 시리즈〈物語〉シリーズ 全集 [Moozzi2] 物语系列(化物语 伪物语 猫物语(黑) 猫物语(白) 倾物语 囮物语 鬼物语 恋物语 花物语 凭物语 终物语 历物语 伤物语 ) monogatari series (BD 1920x1080 x.264 FLACx2) Movie + SP + OVA + Tokuten DVD

转:可瑞西评论,算一个观看顺序介绍
下列是(2009~2019)物語系列全集動畫「放送」順序 (順便提供一下日文拼音,方便對照文件內檔案的名稱):
1. (2009.07.03~09.25) 化物語 [Bakemonogatari] (全15話;TV12+Web3)  
2. (2012.01.07~03.17) 偽物語 [Nisemonogatari] (全11話;TV)  
3. (2012.12.31~12.31) 貓物語(黑) [Nekomonogatari(Kuro)] (全4話;TV-SP)
4. (2013.07.06~12.28) 物語系列第二季 (全26話;TV)  
4.1 貓物語(白) [Nekomonogatari(Shiro)] (#01~#05,共5話)  
4.1.1 總集篇 (#06)  
4.2 傾物語 [Kabukimonogatari] (#07~#10,共4話)  
4.2.1 總集篇 (#11)  
4.3 囮物語 [Otorimonogatari] (#12~#15,共4話)  
4.3.1 總集篇 (#16)  
4.4 鬼物語 [Onimonogatari] (#17~2#0,共4話)  
4.5 戀物語 [Koimonogatari] (#21~#26,共6話
5. (2014.08.16~08.16) 花物語 [Hanamonogatari] (全5話;TV-SP)
6. (2014.12.31~12.31) 憑物語 [Tsukimonogatari] (全4話;TV-SP)
7. (2015.10.03~12.20) 終物語 上、中 [Owarimonogatari] (全12話:第1話分2集,上:#01~#06、中:#07~#12;TV)  
8. (2016.01.09~03.26) 曆物語 [Koyomimonogatari] (全12話;APP)  
9. 【劇場版】(2016.01.08) 傷物語Ⅰ 鐵血篇 [Kizumonogatari I - Tekketsu Hen]  
10.【劇場版】(2016.08.19) 傷物語Ⅱ 熱血篇 [Kizumonogatari II - Nekketsu Hen]  
11.【劇場版】(2017.01.06) 傷物語Ⅲ 冷血篇 [Kizumonogatari III - Reiketsu Hen]  
12.(2017.08.12~08.13) 終物語 下 [Owarimonogatari S2] (全7話;TV-2SP)  
13.(2019.05.18~) 續·終物語 [Zoku·Owarimonogatari] (全6話;TV)

若按物語系列「事件發生時間軸」順序則為:
《傷物語→貓物語(黑)→化物語→偽物語→貓物語(白)→傾物語→鬼物語→終物語(中)→囮物語→終物語(上)→戀物語→憑物語→曆物語→終物語(下)→續·終物語→花物語》
一般而言,大多會建議按「動畫放送」的順序來觀賞即可,畢竟化物語帶出來的就很有引人入勝的開場氣勢了,之後看到前事時,就當看前傳、追溯前因也是OK的,劇情的發展脈絡也不會讓人太難以理解;話說回來,當初一路從2009年追下來的人也只能醬啊...
現在才剛入物語坑的人,個人倒是覺得,可以把劇場版的部份先行補完,之後再按放送順序,從化物語開始跟著觀賞下去,也是個不

~哈,評論區果真不好多寫些什麼,以後不幹這種蠢事了



General
Unique ID                      : 215378160348478655430315457396699489781 (0xA208532898EECA6B897FE5F67B62E5F5)
Complete name                  :
Format                         : Matroska
Format version                 : Version 4
File size                      : 1.40 GiB
Duration                       : 27 min 12 s
Overall bit rate mode          : Variable
Overall bit rate               : 7 387 kb/s
Encoded date                   : UTC 2017-10-07 23:14:19
Writing application            : mkvmerge v9.2.0 ('Photograph') 64bit
Writing library                : libebml v1.3.3 + libmatroska v1.4.4

Video
ID                             : 1
Format                         : AVC
Format/Info                    : Advanced Video Codec
Format profile                 : High@L5
Format settings                : CABAC / 4 Ref Frames
Format settings, CABAC         : Yes
Format settings, ReFrames      : 4 frames
Codec ID                       : V_MPEG4/ISO/AVC
Duration                       : 27 min 12 s
Bit rate                       : 4 696 kb/s
Width                          : 1 920 pixels
Height                         : 1 080 pixels
Display aspect ratio           : 16:9
Frame rate mode                : Constant
Frame rate                     : 23.976 (24000/1001) FPS
Color space                    : YUV
Chroma subsampling             : 4:2:0
Bit depth                      : 8 bits
Scan type                      : Progressive
Bits/(Pixel*Frame)             : 0.094
Stream size                    : 914 MiB (64%)
Writing library                : x264 core 152 r2851 ba24899
Encoding settings              : cabac=1 / ref=5 / deblock=1:1:1 / analyse=0x3:0x113 / me=umh / subme=9 / psy=1 / psy_rd=0.30:0.00 / mixed_ref=1 / me_range=32 / chroma_me=1 / trellis=0 / 8x8dct=1 / cqm=0 / deadzone=21,11 / fast_pskip=0 / chroma_qp_offset=-2 / threads=24 / lookahead_threads=2 / sliced_threads=0 / nr=0 / decimate=1 / interlaced=0 / bluray_compat=0 / stitchable=1 / constrained_intra=0 / bframes=3 / b_pyramid=1 / b_adapt=2 / b_bias=0 / direct=1 / weightb=1 / open_gop=0 / weightp=1 / keyint=240 / keyint_min=23 / scenecut=40 / intra_refresh=0 / rc_lookahead=40 / rc=crf / mbtree=1 / crf=16.0 / qcomp=0.70 / qpmin=0 / qpmax=69 / qpstep=4 / ip_ratio=1.40 / aq=1:1.00
Language                       : Japanese
Default                        : Yes
Forced                         : No

Audio #1
ID                             : 2
Format                         : FLAC
Format/Info                    : Free Lossless Audio Codec
Codec ID                       : A_FLAC
Duration                       : 27 min 12 s
Bit rate mode                  : Variable
Bit rate                       : 1 400 kb/s
Channel(s)                     : 2 channels
Channel layout                 : L R
Sampling rate                  : 48.0 kHz
Frame rate                     : 11.719 FPS (4096 SPF)
Bit depth                      : 24 bits
Compression mode               : Lossless
Stream size                    : 272 MiB (19%)
Writing library                : libFLAC 1.3.2 (UTC 2017-01-01)
Language                       : Japanese
Default                        : Yes
Forced                         : No

Audio #2
ID                             : 3
Format                         : FLAC
Format/Info                    : Free Lossless Audio Codec
Codec ID                       : A_FLAC
Duration                       : 27 min 12 s
Bit rate mode                  : Variable
Bit rate                       : 1 289 kb/s
Channel(s)                     : 2 channels
Channel layout                 : L R
Sampling rate                  : 48.0 kHz
Frame rate                     : 11.719 FPS (4096 SPF)
Bit depth                      : 24 bits
Compression mode               : Lossless
Stream size                    : 251 MiB (17%)
Writing library                : libFLAC 1.3.2 (UTC 2017-01-01)
Language                       : Japanese
Default                        : No
Forced                         : No


下载地址:https://dl.dmhy.org/2019/04/27/83f0a28ba595bff2cb4ebba806f87e8a0be5c9ec.torrent
[发帖际遇]: 小樱 发帖时在路边捡到 1 樱币,偷偷放进了口袋. 幸运榜 / 衰神榜
欢迎光临IT技术交流论坛:http://bbs.itzmx.com/
回复

使用道具 举报

签到天数: 3 天

[LV.2]偶尔看看I

发表于 2019/5/3 22:35 | 显示全部楼层 |Google Chrome 63.0.3239.132|Windows 10
感谢分享,支持一下!
幸苦整合,抱拳拱手!
欢迎光临IT技术交流论坛:http://bbs.itzmx.com/
回复 支持 反对

使用道具 举报

签到天数: 115 天

[LV.6]常住居民II

发表于 2019/5/7 11:35 | 显示全部楼层 |Google Chrome 55.0.2883.87|Windows 10
楼主,这个系列全部都是Moozzi2压制的吗
欢迎光临IT技术交流论坛:http://bbs.itzmx.com/
回复 支持 反对

使用道具 举报

 成长值: 26060

签到天数: 3259 天

[LV.Master]伴坛终老

发表于 2019/5/7 12:52 | 显示全部楼层 |Google Chrome 74.0.3729.131|Windows 10
2050555260 发表于 2019/5/7 11:35
楼主,这个系列全部都是Moozzi2压制的吗

是吧,动漫花园转的
欢迎光临IT技术交流论坛:http://bbs.itzmx.com/
回复 支持 反对

使用道具 举报

签到天数: 115 天

[LV.6]常住居民II

发表于 2019/5/7 14:59 | 显示全部楼层 |Google Chrome 55.0.2883.87|Windows 10
小樱 发表于 2019/5/7 12:52
是吧,动漫花园转的

那楼主有没有下完这个系列,转成度盘了么
欢迎光临IT技术交流论坛:http://bbs.itzmx.com/
回复 支持 反对

使用道具 举报

 成长值: 26060

签到天数: 3259 天

[LV.Master]伴坛终老

发表于 2019/5/7 15:21 | 显示全部楼层 |Google Chrome 74.0.3729.131|Windows 10
2050555260 发表于 2019/5/7 14:59
那楼主有没有下完这个系列,转成度盘了么

下完了,转度盘干嘛。。限速盘不好使
欢迎光临IT技术交流论坛:http://bbs.itzmx.com/
回复 支持 反对

使用道具 举报

签到天数: 115 天

[LV.6]常住居民II

发表于 2019/5/7 21:03 | 显示全部楼层 |Google Chrome 55.0.2883.87|Windows 10
小樱 发表于 2019/5/7 15:21
下完了,转度盘干嘛。。限速盘不好使

速度我不是问题,我现在想白漂的你资源[受虐滑稽]
欢迎光临IT技术交流论坛:http://bbs.itzmx.com/
回复 支持 反对

使用道具 举报

 成长值: 26060

签到天数: 3259 天

[LV.Master]伴坛终老

发表于 2019/5/7 21:21 | 显示全部楼层 |Google Chrome 74.0.3729.131|Windows 10
2050555260 发表于 2019/5/7 21:03
速度我不是问题,我现在想白漂的你资源[受虐滑稽]

--!迅雷挂着下吧
欢迎光临IT技术交流论坛:http://bbs.itzmx.com/
回复 支持 反对

使用道具 举报

签到天数: 115 天

[LV.6]常住居民II

发表于 2019/5/7 21:23 | 显示全部楼层 |Google Chrome 55.0.2883.87|Windows 10
小樱 发表于 2019/5/7 21:21
--!迅雷挂着下吧

--[QAQ]--
欢迎光临IT技术交流论坛:http://bbs.itzmx.com/
回复 支持 反对

使用道具 举报

签到天数: 285 天

[LV.8]以坛为家I

发表于 2019/6/29 19:40 | 显示全部楼层 |Google Chrome 63.0.3239.132|Windows 7
感谢分享
欢迎光临IT技术交流论坛:http://bbs.itzmx.com/
回复 支持 反对

使用道具 举报

签到天数: 17 天

[LV.4]偶尔看看III

发表于 2020/1/2 19:47 | 显示全部楼层 |Firefox 71.0|Windows 10
本帖最后由 在哪里 于 2020/1/2 19:50 编辑

大爱物语!!!!!!
欢迎光临IT技术交流论坛:http://bbs.itzmx.com/
回复 支持 反对

使用道具 举报

签到天数: 17 天

[LV.4]偶尔看看III

发表于 2020/1/2 19:48 | 显示全部楼层 |Firefox 71.0|Windows 10
大爱物语!!!!!!!!
[发帖际遇]: 在哪里 乐于助人,奖励 8 贡献. 幸运榜 / 衰神榜
欢迎光临IT技术交流论坛:http://bbs.itzmx.com/
回复 支持 反对

使用道具 举报

签到天数: 6 天

[LV.2]偶尔看看I

发表于 2020/3/10 21:06 | 显示全部楼层 |Google Chrome 57.0.2987.98|Windows 7
这个是物语大全集啊感谢小樱
欢迎光临IT技术交流论坛:http://bbs.itzmx.com/
回复 支持 反对

使用道具 举报

您需要登录后才可以回帖 登录 | 注册论坛 新浪微博账号登陆用百度帐号登录

本版积分规则

手机版|Archiver|Mail me|网站地图|IT技术交流论坛 ( 闽ICP备13013206号-7 )

GMT+8, 2020/12/5 13:27 , Processed in 0.232487 second(s), 21 queries , MemCache On.

Powered by itzmx! X3.4

© 2011- sakura

快速回复 返回顶部 返回列表