设为首页收藏本站

 找回密码
 注册论坛

QQ登录

只需一步,快速开始

用百度帐号登录

只需两步,快速登录

新浪微博账号登陆

只需一步,快速开始

搜索
查看: 2311|回复: 18

[720P] [2013年][海军陆战队员3][720P HQ AC3 DD5.1-P2P 简繁字幕 2.91G]

[复制链接]

签到天数: 63 天

[LV.6]常住居民II

发表于 2013/3/4 20:26 | 显示全部楼层 |阅读模式 | Google Chrome 24.0.1312.57| Windows XP
天涯海角搜一下: 百度 谷歌 360 搜狗 有道 雅虎 必应 即刻
0.jpg
◎译  名 海军陆战队员3
◎片  名 TheMarine: Homefront/The Marine 3 Homefront
◎年  代 2013
◎国  家 美国
◎类  别 动作
◎语  言 英语
◎字  幕 N/A
◎IMDB评分N/A
◎IMDB链接 [/url][url=http://www.imdb.com/title/tt2334841/]http://www.imdb.com/title/tt2334841/
◎文件格式 XVID + AC3
◎视频尺寸 1280 X720
◎文件大小 1CD 2.91 GB
◎片  长 90 Min
◎导  演 斯科特·维普 ScottWiper
◎主  演 尼尔·麦克唐纳 Neal McDonough
      阿什丽·贝尔Ashley Bell
      迈克·米赞尼 Mike Mizanin
      迈克尔·艾克朗德 MichaelEklund ....Eckert
      Camille Sullivan ....Amanda
      JeffBallard ....Darren
      艾力克斯·保诺维奇 AleksPaunovic ....Gabriel
      Reese Alexander ....SWAT Leader
      PaulLazenby ....Kirk
      贾莱德·金索 Jared Keeso ....Harkin
      DarcyLaurie ....Teddy
      Tony Alcantar ....Glen
      TeachGrant ....Brooks
      Phillip Mitchell ....Leo
      肖恩·泰森 SeanTyson ....Murray

◎简  介 

一名海军陆战队员将尽一切努力去拯救被绑架的侄女,并停止由一个激进的民兵组织领导恐怖袭击事件。
Format : AVI
Format/Info : Audio Video Interleave
Format profile : OpenDML
File size : 2.91 GiB
Duration : 1h 30mn
Overall bit rate : 4 622 Kbps
Writing application : VirtualDubMod 1.5.10.2 (build 2540/release)
Writing library : VirtualDubMod build 2540/release
Video #0
ID : 0
Format : MPEG-4 Visual
Format profile : Advanced [email protected]
Format settings, BVOP : 2
Format settings, QPel : No
Format settings, GMC : No warppoints
Format settings, Matrix : Default (H.263)
Codec ID : XVID
Codec ID/Hint : XviD
Duration : 1h 30mn
Bit rate : 3 971 Kbps
Width : 1 280 pixels
Height : 720 pixels
Display aspect ratio : 16:9
Frame rate : 23.976 fps
Color space : YUV
Chroma subsampling : 4:2:0
Bit depth : 8 bits
Scan type : Progressive
Compression mode : Lossy
Bits/(Pixel*Frame) : 0.180
Stream size : 2.50 GiB (86%)
Writing library : XviD 1.2.1 (UTC 2008-12-04)
Audio #1
ID : 1
Format : AC-3
Format/Info : Audio Coding 3
Mode extension : CM (complete main)
Codec ID : 2000
Duration : 1h 30mn
Bit rate mode : Constant
Bit rate : 640 Kbps
Channel(s) : 6 channels
Channel positions : Front: L C R, Side: L R, LFE
Sampling rate : 48.0 KHz
Bit depth : 16 bits
Compression mode : Lossy
Stream size : 413 MiB (14%)
Alignment : Split accross interleaves
Interleave, duration : 42 ms (1.00 video frame)
Interleave, preload duration : 500 ms



电影截图:


1.jpg

2.jpg

3.jpg




[免责声明]
该下载内容仅限於个人测试学习之用,并且请在下载后24小时内删除。
资源版权归原作者及其公司所有,如果你喜欢,请购买正版!谢谢!

================================================================================



下载地址:
The Marine Homefront (2013) 720P HQ AC3 DD5.1 (Externe Ned Eng Subs).torrent

字幕The Marine Homefront (2013) 720P HQ AC3 DD5.1 (1).rar
欢迎光临IT技术交流论坛:http://bbs.itzmx.com/
回复

使用道具 举报

心已在颤抖 该用户已被删除
发表于 2013/3/4 20:33 | 显示全部楼层
提示: 作者被禁止或删除 内容自动屏蔽
欢迎光临IT技术交流论坛:http://bbs.itzmx.com/
回复 支持 反对

使用道具 举报

签到天数: 2819 天

[LV.Master]伴坛终老

 成长值: 23840
发表于 2013/3/4 20:34 | 显示全部楼层 | Google Chrome 27.0.1425.2| Windows 8
字幕不能和种子一起打包么?
欢迎光临IT技术交流论坛:http://bbs.itzmx.com/
回复 支持 反对

使用道具 举报

liping1995 该用户已被删除
发表于 2013/3/5 08:58 | 显示全部楼层 | Google Chrome 27.0.1429.0| Windows 8
提示: 作者被禁止或删除 内容自动屏蔽
[发帖际遇]: 发帖时在路边捡到 4 樱币,偷偷放进了口袋. 幸运榜 / 衰神榜
欢迎光临IT技术交流论坛:http://bbs.itzmx.com/
回复 支持 反对

使用道具 举报

对抗心痛 该用户已被删除
发表于 2013/4/11 04:30 | 显示全部楼层
提示: 作者被禁止或删除 内容自动屏蔽
欢迎光临IT技术交流论坛:http://bbs.itzmx.com/
回复 支持 反对

使用道具 举报

回忆那伤口 该用户已被删除
发表于 2013/8/13 18:42 | 显示全部楼层
提示: 作者被禁止或删除 内容自动屏蔽
欢迎光临IT技术交流论坛:http://bbs.itzmx.com/
回复 支持 反对

使用道具 举报

街角旳安静 该用户已被删除
发表于 2013/8/17 03:33 | 显示全部楼层
提示: 作者被禁止或删除 内容自动屏蔽
欢迎光临IT技术交流论坛:http://bbs.itzmx.com/
回复 支持 反对

使用道具 举报

酒醉为紅顏 该用户已被删除
发表于 2013/8/20 11:15 | 显示全部楼层
提示: 作者被禁止或删除 内容自动屏蔽
欢迎光临IT技术交流论坛:http://bbs.itzmx.com/
回复 支持 反对

使用道具 举报

青春起点 该用户已被删除
发表于 2013/9/6 10:52 | 显示全部楼层
提示: 作者被禁止或删除 内容自动屏蔽
欢迎光临IT技术交流论坛:http://bbs.itzmx.com/
回复 支持 反对

使用道具 举报

居高领下 该用户已被删除
发表于 2013/9/6 17:08 | 显示全部楼层
提示: 作者被禁止或删除 内容自动屏蔽
欢迎光临IT技术交流论坛:http://bbs.itzmx.com/
回复 支持 反对

使用道具 举报

他笑颜如花 该用户已被删除
发表于 2013/9/7 12:14 | 显示全部楼层
提示: 作者被禁止或删除 内容自动屏蔽
欢迎光临IT技术交流论坛:http://bbs.itzmx.com/
回复 支持 反对

使用道具 举报

港台腔 该用户已被删除
发表于 2013/9/13 20:38 | 显示全部楼层
提示: 作者被禁止或删除 内容自动屏蔽
欢迎光临IT技术交流论坛:http://bbs.itzmx.com/
回复 支持 反对

使用道具 举报

不谈感情 该用户已被删除
发表于 2013/9/15 08:59 | 显示全部楼层
提示: 作者被禁止或删除 内容自动屏蔽
欢迎光临IT技术交流论坛:http://bbs.itzmx.com/
回复 支持 反对

使用道具 举报

搜狗搜出了你 该用户已被删除
发表于 2013/9/17 21:40 | 显示全部楼层
提示: 作者被禁止或删除 内容自动屏蔽
欢迎光临IT技术交流论坛:http://bbs.itzmx.com/
回复 支持 反对

使用道具 举报

何必在一起 该用户已被删除
发表于 2013/9/19 13:50 | 显示全部楼层
提示: 作者被禁止或删除 内容自动屏蔽
欢迎光临IT技术交流论坛:http://bbs.itzmx.com/
回复 支持 反对

使用道具 举报

我不够爱你吗 该用户已被删除
发表于 2013/9/23 07:11 | 显示全部楼层
提示: 作者被禁止或删除 内容自动屏蔽
欢迎光临IT技术交流论坛:http://bbs.itzmx.com/
回复 支持 反对

使用道具 举报

生生 该用户已被删除
发表于 2013/9/28 13:32 | 显示全部楼层
提示: 作者被禁止或删除 内容自动屏蔽
欢迎光临IT技术交流论坛:http://bbs.itzmx.com/
回复 支持 反对

使用道具 举报

心冷漠情何在 该用户已被删除
发表于 2013/10/2 17:53 | 显示全部楼层
提示: 作者被禁止或删除 内容自动屏蔽
欢迎光临IT技术交流论坛:http://bbs.itzmx.com/
回复 支持 反对

使用道具 举报

慢嗨式恋爱 该用户已被删除
发表于 2013/10/7 19:58 | 显示全部楼层
提示: 作者被禁止或删除 内容自动屏蔽
欢迎光临IT技术交流论坛:http://bbs.itzmx.com/
回复 支持 反对

使用道具 举报

*滑动验证:
您需要登录后才可以回帖 登录 | 注册论坛 用百度帐号登录新浪微博账号登陆

本版积分规则

手机版|Archiver|Mail me|网站地图|IT技术交流论坛 ( 闽ICP备13013206号-7 )

GMT+8, 2019/9/22 16:09 , Processed in 2.773805 second(s), 37 queries , Gzip On, Memcache On.

Powered by itzmx!

© 2011-2019 sakura

快速回复 返回顶部 返回列表