设为首页收藏本站

 找回密码
 注册论坛

QQ登录

只需一步,快速开始

用百度帐号登录

只需两步,快速登录

新浪微博账号登陆

只需一步,快速开始

搜索
楼主: 小樱

[软件] HEVC格式,h265视频高清压制软件,ShanaEncoder5.0.0.4.exe,GPU压制加速,简体中文版下载

  [复制链接]

签到天数: 29 天

[LV.4]偶尔看看III

发表于 2020/1/19 17:06 | 显示全部楼层 |Google Chrome 76.0.3809.132|Windows 10
天涯海角搜一下: 百度 谷歌 360 搜狗 有道 雅虎 必应 即刻
5.0.0.2汉化补丁还没有?
欢迎光临IT技术交流论坛:http://bbs.itzmx.com/
回复 支持 反对

使用道具 举报

签到天数: 30 天

[LV.5]常住居民I

发表于 2020/2/4 22:06 | 显示全部楼层 |Firefox 41.0|Windows 7
压片一直都是用ABR模式,看到本帖中小樱说加2PASS能有更好效果,就试着加上了,结果压出来的影片没有音轨,试了几次都是这样。

请问这是什么原因?
欢迎光临IT技术交流论坛:http://bbs.itzmx.com/
回复 支持 反对

使用道具 举报

签到天数: 2977 天

[LV.Master]伴坛终老

 成长值: 24640
发表于 2020/2/4 23:05 | 显示全部楼层 |Google Chrome 79.0.3945.130|Windows 10
jyuanmhw 发表于 2020/2/4 22:06
压片一直都是用ABR模式,看到本帖中小樱说加2PASS能有更好效果,就试着加上了,结果压出来的影片没有音轨, ...

音轨不要选无,选AAC
欢迎光临IT技术交流论坛:http://bbs.itzmx.com/
回复 支持 反对

使用道具 举报

签到天数: 30 天

[LV.5]常住居民I

发表于 2020/2/5 14:59 | 显示全部楼层 |Firefox 41.0|Windows 7
本帖最后由 jyuanmhw 于 2020/2/5 15:30 编辑
小樱 发表于 2020/2/4 23:05
音轨不要选无,选AAC


音轨从没有选过“无”,一直都是用的AC3,刚才试了换成AAC,加了2pass压出来还是没音轨,如图:

2020-02-05_151731.jpg

这是之前没加2pass压的:

2020-02-05_151934.jpg
欢迎光临IT技术交流论坛:http://bbs.itzmx.com/
回复 支持 反对

使用道具 举报

签到天数: 2977 天

[LV.Master]伴坛终老

 成长值: 24640
发表于 2020/2/5 18:24 | 显示全部楼层 |Google Chrome 79.0.3945.130|Windows 10
jyuanmhw 发表于 2020/2/5 14:59
音轨从没有选过“无”,一直都是用的AC3,刚才试了换成AAC,加了2pass压出来还是没音轨,如图:

软件上面的任务信息截图看看?我这试了是正常的
欢迎光临IT技术交流论坛:http://bbs.itzmx.com/
回复 支持 反对

使用道具 举报

签到天数: 30 天

[LV.5]常住居民I

发表于 2020/2/6 19:59 | 显示全部楼层 |Firefox 41.0|Windows 10
小樱 发表于 2020/2/5 18:24
软件上面的任务信息截图看看?我这试了是正常的

只压了几分钟,源文件音轨是DTS.

这是任务日志:

>> 编码开始时间: 2/6/2020 7:49:06 PM

* 输入文件名: hd1080-tlbhe.mkv

Only '-vf yadif=0:-1:0,scale=1280:532:flags=bicubic,pad=1280:720:0:94,setsar=1/1,ass=filename=F0/Program Files/ShanaEncoder_4.9.0.6/settings/encoding32360.ass:fontname=Segoe UI|Malgun Gothic|Microsoft YaHei|Microsoft JhengHei|Yu Gothic|Leelawadee UI|Ebrima|Nirmala UI|Gadugi:subdelay=0' read, ignoring remaining -vf options: Use ',' to separate filters
Stream mapping:
  Stream #0:2 -> #0:0 (h264 (native) -> h264 (libx264))
[ass] Shaper: FriBidi 1.0.7 (SIMPLE)
[ass] Added subtitle file: 'F:/Program Files/ShanaEncoder_4.9.0.6/settings/encoding32360.ass' (2 styles, 914 events)
[libx264 @ 00000220579d78c0] using SAR=1/1
[libx264 @ 00000220579d78c0] using cpu capabilities: MMX2 SSE2Fast SSSE3 SSE4.1 Cache64
[libx264 @ 00000220579d78c0] profile Progressive High 10, level 4.1, 4:2:0, 10-bit
[libx264 @ 00000220579d78c0] 264 - core 157 r2969 d4099dd - H.264/MPEG-4 AVC codec - Copyleft 2003-2019 - http://www.videolan.org/x264.html - options: cabac=1 ref=1 deblock=1:0:0 analyse=0x1:0 me=hex subme=2 psy=0 mixed_ref=0 me_range=16 chroma_me=1 trellis=0 8x8dct=0 cqm=0 deadzone=21,11 fast_pskip=1 chroma_qp_offset=0 threads=3 lookahead_threads=1 sliced_threads=0 nr=0 decimate=1 interlaced=0 bluray_compat=0 constrained_intra=0 bframes=3 b_pyramid=2 b_adapt=1 b_bias=0 direct=1 weightb=1 open_gop=0 weightp=1 keyint=240 keyint_min=24 scenecut=40 intra_refresh=0 rc_lookahead=10 rc=abr mbtree=1 bitrate=3250 ratetol=1.0 qcomp=0.60 qpmin=0 qpmax=81 qpstep=4 ip_ratio=1.40 aq=2:1.00
    Side data:
      cpb: bitrate max/min/avg: 0/0/3250000 buffer size: 0 vbv_delay: -1
video:76398kB audio:0kB subtitle:0kB other streams:0kB global headers:0kB muxing overhead: 0.043191%
[libx264 @ 00000220579d78c0] frame I:22    Avg QP:20.00  size:111139
[libx264 @ 00000220579d78c0] frame P:1219  Avg QP:24.31  size: 37096
[libx264 @ 00000220579d78c0] frame B:3149  Avg QP:26.91  size:  9707
[libx264 @ 00000220579d78c0] consecutive B-frames:  3.8%  1.3%  1.4% 93.5%
[libx264 @ 00000220579d78c0] mb I  I16..4: 50.2%  0.0% 49.8%
[libx264 @ 00000220579d78c0] mb P  I16..4: 17.1%  0.0%  0.0%  P16..4: 45.8%  0.0%  0.0%  0.0%  0.0%    skip:37.1%
[libx264 @ 00000220579d78c0] mb B  I16..4:  1.3%  0.0%  0.0%  B16..8: 16.8%  0.0%  0.0%  direct:15.3%  skip:66.6%  L0:21.2% L1:33.7% BI:45.1%
[libx264 @ 00000220579d78c0] final ratefactor: 13.67
[libx264 @ 00000220579d78c0] coded y,uvDC,uvAC intra: 43.9% 66.0% 40.6% inter: 16.0% 21.4% 5.3%
[libx264 @ 00000220579d78c0] i16 v,h,dc,p: 32% 22% 18% 28%
[libx264 @ 00000220579d78c0] i4 v,h,dc,ddl,ddr,vr,hd,vl,hu: 17% 20% 12%  4% 13%  9% 10%  8%  9%
[libx264 @ 00000220579d78c0] i8c dc,h,v,p: 43% 22% 16% 19%
[libx264 @ 00000220579d78c0] Weighted P-Frames: Y:4.5% UV:2.8%
[libx264 @ 00000220579d78c0] kb/s:3418.06

* 编码已停止.

>> 速度1.01x 已耗时 00:03:13

==================================================

这是输出文件信息:

General
Unique ID                                : 328122175652202626956657118131323371934 (0xF6DA0848211D1CAB4A9FE33A9FAF819E)
Complete name                            : H:\movies1\hd1080-tlbhe.mkv
Format                                   : Matroska
Format version                           : Version 4
File size                                : 74.6 MiB
Duration                                 : 3 min 3 s
Overall bit rate                         : 3 420 kb/s
Writing application                      : ShanaEncoder
Writing library                          : ShanaEncoder
ErrorDetectionType                       : Per level 1

Video
ID                                       : 1
Format                                   : AVC
Format/Info                              : Advanced Video Codec
Format profile                           : High 10@L4.1
Format settings                          : CABAC / 4 Ref Frames
Format settings, CABAC                   : Yes
Format settings, Reference frames        : 4 frames
Codec ID                                 : V_MPEG4/ISO/AVC
Duration                                 : 3 min 3 s
Bit rate                                 : 3 250 kb/s
Width                                    : 1 280 pixels
Height                                   : 720 pixels
Display aspect ratio                     : 16:9
Frame rate mode                          : Constant
Frame rate                               : 23.976 (24000/1001) FPS
Color space                              : YUV
Chroma subsampling                       : 4:2:0
Bit depth                                : 10 bits
Scan type                                : Progressive
Bits/(Pixel*Frame)                       : 0.147
Stream size                              : 73.2 MiB (98%)
Writing library                          : x264 core 157 r2969 d4099dd
Encoding settings                        : cabac=1 / ref=1 / deblock=1:0:0 / analyse=0x1:0 / me=hex / subme=2 / psy=0 / mixed_ref=0 / me_range=16 / chroma_me=1 / trellis=0 / 8x8dct=0 / cqm=0 / deadzone=21,11 / fast_pskip=1 / chroma_qp_offset=0 / threads=3 / lookahead_threads=1 / sliced_threads=0 / nr=0 / decimate=1 / interlaced=0 / bluray_compat=0 / constrained_intra=0 / bframes=3 / b_pyramid=2 / b_adapt=1 / b_bias=0 / direct=1 / weightb=1 / open_gop=0 / weightp=1 / keyint=240 / keyint_min=24 / scenecut=40 / intra_refresh=0 / rc_lookahead=10 / rc=abr / mbtree=1 / bitrate=3250 / ratetol=1.0 / qcomp=0.60 / qpmin=0 / qpmax=81 / qpstep=4 / ip_ratio=1.40 / aq=2:1.00
Default                                  : Yes
Forced                                   : No



Detail information

General
Count                                    : 332
Count of stream of this kind             : 1
Kind of stream                           : General
Kind of stream                           : General
Stream identifier                        : 0
Unique ID                                : 328122175652202626956657118131323371934
Unique ID                                : 328122175652202626956657118131323371934 (0xF6DA0848211D1CAB4A9FE33A9FAF819E)
Count of video streams                   : 1
Video_Format_List                        : AVC
Video_Format_WithHint_List               : AVC
Codecs Video                             : AVC
Complete name                            : H:\movies1\hd1080-tlbhe.mkv
Folder name                              : H:\movies1
File name extension                      : hd1080-tlbhe.mkv
File name                                : hd1080-tlbhe
File extension                           : mkv
Format                                   : Matroska
Format                                   : Matroska
Format/Url                               : https://matroska.org/downloads/windows.html
Format/Extensions usually used           : mkv mk3d mka mks
Commercial name                          : Matroska
Format version                           : Version 4
File size                                : 78265148
File size                                : 74.6 MiB
File size                                : 75 MiB
File size                                : 75 MiB
File size                                : 74.6 MiB
File size                                : 74.64 MiB
Duration                                 : 183100
Duration                                 : 3 min 3 s
Duration                                 : 3 min 3 s 100 ms
Duration                                 : 3 min 3 s
Duration                                 : 00:03:03.100
Duration                                 : 00:03:03;04
Duration                                 : 00:03:03.100 (00:03:03;04)
Overall bit rate                         : 3419559
Overall bit rate                         : 3 420 kb/s
Frame rate                               : 23.976
Frame rate                               : 23.976 FPS
Frame count                              : 4390
Stream size                              : 1557566
Stream size                              : 1.49 MiB (2%)
Stream size                              : 1 MiB
Stream size                              : 1.5 MiB
Stream size                              : 1.49 MiB
Stream size                              : 1.485 MiB
Stream size                              : 1.49 MiB (2%)
Proportion of this stream                : 0.01990
IsStreamable                             : Yes
File creation date                       : UTC 2020-02-06 11:49:06.835
File creation date (local)               : 2020-02-06 19:49:06.835
File last modification date              : UTC 2020-02-06 11:52:19.708
File last modification date (local)      : 2020-02-06 19:52:19.708
Writing application                      : ShanaEncoder
Writing application                      : ShanaEncoder
Writing library                          : ShanaEncoder
Writing library                          : ShanaEncoder
ErrorDetectionType                       : Per level 1

Video
Count                                    : 377
Count of stream of this kind             : 1
Kind of stream                           : Video
Kind of stream                           : Video
Stream identifier                        : 0
StreamOrder                              : 0
ID                                       : 1
ID                                       : 1
Unique ID                                : 1
Format                                   : AVC
Format                                   : AVC
Format/Info                              : Advanced Video Codec
Format/Url                               : http://developers.videolan.org/x264.html
Commercial name                          : AVC
Format profile                           : High 10@L4.1
Format settings                          : CABAC / 4 Ref Frames
Format settings, CABAC                   : Yes
Format settings, CABAC                   : Yes
Format settings, Reference frames        : 4
Format settings, Reference frames        : 4 frames
Internet media type                      : video/H264
Codec ID                                 : V_MPEG4/ISO/AVC
Codec ID/Url                             : http://ffdshow-tryout.sourceforge.net/
Duration                                 : 183100.000000
Duration                                 : 3 min 3 s
Duration                                 : 3 min 3 s 100 ms
Duration                                 : 3 min 3 s
Duration                                 : 00:03:03.100
Duration                                 : 00:03:03;04
Duration                                 : 00:03:03.100 (00:03:03;04)
Bit rate                                 : 3250000
Bit rate                                 : 3 250 kb/s
Width                                    : 1280
Width                                    : 1 280 pixels
Height                                   : 720
Height                                   : 720 pixels
Sampled_Width                            : 1280
Sampled_Height                           : 720
Pixel aspect ratio                       : 1.000
Display aspect ratio                     : 1.778
Display aspect ratio                     : 16:9
Frame rate mode                          : CFR
Frame rate mode                          : Constant
FrameRate_Mode_Original                  : VFR
Frame rate                               : 23.976
Frame rate                               : 23.976 (24000/1001) FPS
FrameRate_Num                            : 24000
FrameRate_Den                            : 1001
Frame count                              : 4390
Color space                              : YUV
Chroma subsampling                       : 4:2:0
Chroma subsampling                       : 4:2:0
Bit depth                                : 10
Bit depth                                : 10 bits
Scan type                                : Progressive
Scan type                                : Progressive
Bits/(Pixel*Frame)                       : 0.147
Delay                                    : 0
Delay                                    : 00:00:00.000
Delay, origin                            : Container
Delay, origin                            : Container
Stream size                              : 76707582
Stream size                              : 73.2 MiB (98%)
Stream size                              : 73 MiB
Stream size                              : 73 MiB
Stream size                              : 73.2 MiB
Stream size                              : 73.15 MiB
Stream size                              : 73.2 MiB (98%)
Proportion of this stream                : 0.98010
Writing library                          : x264 - core 157 r2969 d4099dd
Writing library                          : x264 core 157 r2969 d4099dd
Encoded_Library_Name                     : x264
Encoded_Library_Version                  : core 157 r2969 d4099dd
Encoding settings                        : cabac=1 / ref=1 / deblock=1:0:0 / analyse=0x1:0 / me=hex / subme=2 / psy=0 / mixed_ref=0 / me_range=16 / chroma_me=1 / trellis=0 / 8x8dct=0 / cqm=0 / deadzone=21,11 / fast_pskip=1 / chroma_qp_offset=0 / threads=3 / lookahead_threads=1 / sliced_threads=0 / nr=0 / decimate=1 / interlaced=0 / bluray_compat=0 / constrained_intra=0 / bframes=3 / b_pyramid=2 / b_adapt=1 / b_bias=0 / direct=1 / weightb=1 / open_gop=0 / weightp=1 / keyint=240 / keyint_min=24 / scenecut=40 / intra_refresh=0 / rc_lookahead=10 / rc=abr / mbtree=1 / bitrate=3250 / ratetol=1.0 / qcomp=0.60 / qpmin=0 / qpmax=81 / qpstep=4 / ip_ratio=1.40 / aq=2:1.00
Default                                  : Yes
Default                                  : Yes
Forced                                   : No
Forced                                   : No

MediaInfoLib - v19.09
[发帖际遇]: jyuanmhw 乐于助人,奖励 2 贡献. 幸运榜 / 衰神榜
欢迎光临IT技术交流论坛:http://bbs.itzmx.com/
回复 支持 反对

使用道具 举报

签到天数: 2977 天

[LV.Master]伴坛终老

 成长值: 24640
发表于 2020/2/6 22:04 | 显示全部楼层 |Google Chrome 79.0.3945.130|Windows 10
jyuanmhw 发表于 2020/2/6 19:59
只压了几分钟,源文件音轨是DTS.

这是任务日志:


你的日志没有看到任何相关的2pass,,2pass是这样的,第二部分才开始处理音频,进度条要跑两次100%
可以观察到第二部分才开始有  Stream #0:1 -> #0:1 (aac (native) -> aac (libfdk_aac))
看你图显示的是编码已停止,而不是编码已完成,应该是这个的缘故,是不是你直接按了停止按钮没让他跑完
第二部分可以明显看到 rc=2pass 的标识,参数对比也多了 cplxblur=20.0 qblur=0.5 两个,你的日志输出上都没有


>> 编码开始时间:2020/2/6 2:30:47

* 输入文件名:《瘟疫传说:无罪》(A Plague Tale:Innocence)前路漫漫、我们的家、在城墙下的阴影章节03.mp4

Only '-vf scale=1920:1080:flags=bicubic,pad=1920:1080:0:0,setsar=1/1' read, ignoring remaining -vf options: Use ',' to separate filters
Stream mapping:
  Stream #0:0 -> #0:0 (h264 (native) -> h264 (libx264))
[libx264 @ 00000275412bfd80] using SAR=1/1
[libx264 @ 00000275412bfd80] using cpu capabilities: MMX2 SSE2Fast SSSE3 SSE4.2 AVX
[libx264 @ 00000275412bfd80] profile Progressive High, level 5.0, 4:2:0, 8-bit
[libx264 @ 00000275412bfd80] 264 - core 157 r2969 d4099dd - H.264/MPEG-4 AVC codec - Copyleft 2003-2019 - http://www.videolan.org/x264.html - options: cabac=1 ref=8 deblock=1:0:0 analyse=0x3:0x133 me=umh subme=9 psy=0 mixed_ref=1 me_range=16 chroma_me=1 trellis=2 8x8dct=1 cqm=0 deadzone=21,11 fast_pskip=1 chroma_qp_offset=0 threads=34 lookahead_threads=2 sliced_threads=0 nr=0 decimate=1 interlaced=0 bluray_compat=0 constrained_intra=0 bframes=3 b_pyramid=2 b_adapt=2 b_bias=0 direct=3 weightb=1 open_gop=0 weightp=2 keyint=600 keyint_min=60 scenecut=40 intra_refresh=0 rc_lookahead=60 rc=abr mbtree=1 bitrate=6000 ratetol=1.0 qcomp=0.60 qpmin=0 qpmax=69 qpstep=4 ip_ratio=1.40 aq=2:1.00
    Side data:
      cpb: bitrate max/min/avg: 0/0/6000000 buffer size: 0 vbv_delay: N/A
video:4898661kB audio:0kB subtitle:0kB other streams:0kB global headers:0kB muxing overhead: 0.087997%
[libx264 @ 00000275412bfd80] frame I:893   Avg QP:20.64  size:101305
[libx264 @ 00000275412bfd80] frame P:128232 Avg QP:23.49  size: 26218
[libx264 @ 00000275412bfd80] frame B:273709 Avg QP:27.22  size:  5713
[libx264 @ 00000275412bfd80] consecutive B-frames:  2.4%  5.6% 46.2% 45.8%
[libx264 @ 00000275412bfd80] mb I  I16..4: 17.2% 73.2%  9.7%
[libx264 @ 00000275412bfd80] mb P  I16..4: 10.0% 13.2%  0.6%  P16..4: 38.7%  6.9%  3.8%  0.1%  0.0%    skip:26.7%
[libx264 @ 00000275412bfd80] mb B  I16..4:  1.0%  1.2%  0.0%  B16..8: 25.4%  2.6%  0.3%  direct: 0.8%  skip:68.7%  L0:40.0% L1:56.9% BI: 3.1%
[libx264 @ 00000275412bfd80] final ratefactor: 21.48
[libx264 @ 00000275412bfd80] 8x8 transform intra:55.9% inter:79.2%
[libx264 @ 00000275412bfd80] direct mvs  spatial:99.9% temporal:0.1%
[libx264 @ 00000275412bfd80] coded y,uvDC,uvAC intra: 37.5% 29.9% 3.0% inter: 7.6% 4.2% 0.1%
[libx264 @ 00000275412bfd80] i16 v,h,dc,p: 27% 25% 23% 25%
[libx264 @ 00000275412bfd80] i8 v,h,dc,ddl,ddr,vr,hd,vl,hu: 17% 15% 25%  5%  7%  6%  8%  6% 10%
[libx264 @ 00000275412bfd80] i4 v,h,dc,ddl,ddr,vr,hd,vl,hu: 19% 17% 22%  5%  8%  7%  8%  5%  9%
[libx264 @ 00000275412bfd80] i8c dc,h,v,p: 68% 19% 10%  3%
[libx264 @ 00000275412bfd80] Weighted P-Frames: Y:10.7% UV:4.1%
[libx264 @ 00000275412bfd80] ref P L0: 58.6% 27.3%  8.2%  1.7%  1.3%  1.0%  1.0%  0.7%  0.1%  0.0%
[libx264 @ 00000275412bfd80] ref B L0: 92.5%  3.7%  1.7%  0.7%  0.6%  0.5%  0.3%
[libx264 @ 00000275412bfd80] ref B L1: 99.0%  1.0%
[libx264 @ 00000275412bfd80] kb/s:5977.04

* 编码已经完成。

>> 速度 0.146x 已耗时 12:45:05

==================================================

>> 编码开始时间:2020/2/6 15:15:53

* 输入文件名:《瘟疫传说:无罪》(A Plague Tale:Innocence)前路漫漫、我们的家、在城墙下的阴影章节03.mp4

Only '-vf scale=1920:1080:flags=bicubic,pad=1920:1080:0:0,setsar=1/1' read, ignoring remaining -vf options: Use ',' to separate filters
Only '-af aresample=48000:resampler=soxr' read, ignoring remaining -af options: Use ',' to separate filters
Stream mapping:
  Stream #0:0 -> #0:0 (h264 (native) -> h264 (libx264))
  Stream #0:1 -> #0:1 (aac (native) -> aac (libfdk_aac))
[libx264 @ 00000166d0d60840] using SAR=1/1
[libx264 @ 00000166d0d60840] using cpu capabilities: MMX2 SSE2Fast SSSE3 SSE4.2 AVX
[libx264 @ 00000166d0d60840] profile Progressive High, level 5.0, 4:2:0, 8-bit
[libx264 @ 00000166d0d60840] 264 - core 157 r2969 d4099dd - H.264/MPEG-4 AVC codec - Copyleft 2003-2019 - http://www.videolan.org/x264.html - options: cabac=1 ref=8 deblock=1:0:0 analyse=0x3:0x133 me=umh subme=9 psy=0 mixed_ref=1 me_range=16 chroma_me=1 trellis=2 8x8dct=1 cqm=0 deadzone=21,11 fast_pskip=1 chroma_qp_offset=0 threads=34 lookahead_threads=2 sliced_threads=0 nr=0 decimate=1 interlaced=0 bluray_compat=0 constrained_intra=0 bframes=3 b_pyramid=2 b_adapt=2 b_bias=0 direct=3 weightb=1 open_gop=0 weightp=2 keyint=600 keyint_min=60 scenecut=40 intra_refresh=0 rc_lookahead=60 rc=2pass mbtree=1 bitrate=6000 ratetol=1.0 qcomp=0.60 qpmin=0 qpmax=69 qpstep=4 cplxblur=20.0 qblur=0.5 ip_ratio=1.40 aq=2:1.00
    Side data:
      cpb: bitrate max/min/avg: 0/0/6000000 buffer size: 0 vbv_delay: N/A
欢迎光临IT技术交流论坛:http://bbs.itzmx.com/
回复 支持 反对

使用道具 举报

签到天数: 30 天

[LV.5]常住居民I

发表于 2020/2/7 00:15 | 显示全部楼层 |Firefox 41.0|Windows 10
小樱 发表于 2020/2/6 22:04
你的日志没有看到任何相关的2pass,,2pass是这样的,第二部分才开始处理音频,进度条要跑两次100%
可 ...

谢谢回复,平时压片都是先压几分钟看看字幕效果是否达到要求,便于修改调整。

按您的解释,如果加了2pass,必须整部影片都编码完成后才会有音轨,是这样吗?
[发帖际遇]: 一个袋子砸在了 jyuanmhw 头上,jyuanmhw 赚了 4 樱币. 幸运榜 / 衰神榜
欢迎光临IT技术交流论坛:http://bbs.itzmx.com/
回复 支持 反对

使用道具 举报

签到天数: 2977 天

[LV.Master]伴坛终老

 成长值: 24640
发表于 2020/2/7 00:35 | 显示全部楼层 |Google Chrome 79.0.3945.130|Windows 10
jyuanmhw 发表于 2020/2/7 00:15
谢谢回复,平时压片都是先压几分钟看看字幕效果是否达到要求,便于修改调整。

按您的解释,如果加了2p ...

你可以用剪切功能,可以看到效果,不要进度条还在跑就停止他
欢迎光临IT技术交流论坛:http://bbs.itzmx.com/
回复 支持 反对

使用道具 举报

签到天数: 30 天

[LV.5]常住居民I

发表于 2020/2/7 20:01 | 显示全部楼层 |Firefox 41.0|Windows 10
小樱 发表于 2020/2/7 00:35
你可以用剪切功能,可以看到效果,不要进度条还在跑就停止他

谢谢您,总算弄明白2pass怎么用了
[发帖际遇]: 一个袋子砸在了 jyuanmhw 头上,jyuanmhw 赚了 4 樱币. 幸运榜 / 衰神榜
欢迎光临IT技术交流论坛:http://bbs.itzmx.com/
回复 支持 反对

使用道具 举报

*滑动验证:
您需要登录后才可以回帖 登录 | 注册论坛 用百度帐号登录新浪微博账号登陆

本版积分规则

手机版|Archiver|Mail me|网站地图|IT技术交流论坛 ( 闽ICP备13013206号-7 )

GMT+8, 2020/2/27 15:02 , Processed in 1.906479 second(s), 33 queries , Gzip On, Memcache On.

Powered by itzmx!

© 2011- sakura

快速回复 返回顶部 返回列表