设为首页收藏本站

 找回密码
 注册论坛

QQ登录

只需一步,快速开始

用百度帐号登录

只需两步,快速登录

新浪微博账号登陆

只需一步,快速开始

搜索
查看: 639|回复: 0

[日漫] [剧场版魔法科高校的劣等生呼唤星星的少女] [1080P] [简体] [Mahouka Koukou no Rettousei Hoshi o Yobu Shoujo] 3.1GB [BD 1920x1080 HEVC FLAC 10bit]

[复制链接]

签到天数: 2535 天

[LV.Master]伴坛终老

 成长值: 22415
发表于 2018/2/2 02:37 | 显示全部楼层 |阅读模式 |Google Chrome 64.0.3282.119|Windows 10
天涯海角搜一下: 百度 谷歌 360 搜狗 有道 雅虎 必应 即刻
帖子提供的字幕不知道是谁翻译的
字幕转载某论坛

General
Unique ID                      : 190479459163971018607987923325164695115 (0x8F4D02695046F7CA906A239B5E1FAE4B)
Complete name                  : F:\迅雷下载\临时文件夹\[LoliHouse] Mahouka Koukou no Rettousei Hoshi o Yobu Shoujo - Movie [BDRip 1920x1080 HEVC-10bit FLAC PGS]\[LoliHouse] Mahouka Koukou no Rettousei Hoshi o Yobu Shoujo - Movie [BDRip 1920x1080 HEVC-yuv420p10 FLAC PGS].mkv
Format                         : Matroska
Format version                 : Version 4 / Version 2
File size                      : 3.15 GiB
Duration                       : 1 h 29 min
Overall bit rate mode          : Variable
Overall bit rate               : 5 012 kb/s
Encoded date                   : UTC 2018-01-25 17:29:33
Writing application            : mkvmerge v17.0.0 ('Be Ur Friend') 64-bit
Writing library                : libebml v1.3.5 + libmatroska v1.4.8

Video
ID                             : 1
Format                         : HEVC
Format/Info                    : High Efficiency Video Coding
Format profile                 : Main 10@L4@Main
Codec ID                       : V_MPEGH/ISO/HEVC
Duration                       : 1 h 29 min
Bit rate                       : 3 959 kb/s
Width                          : 1 920 pixels
Height                         : 1 080 pixels
Display aspect ratio           : 16:9
Frame rate mode                : Constant
Frame rate                     : 23.976 (24000/1001) FPS
Color space                    : YUV
Chroma subsampling             : 4:2:0
Bit depth                      : 10 bits
Bits/(Pixel*Frame)             : 0.080
Stream size                    : 2.49 GiB (79%)
Writing library                : x265 2.5+6-gfe8703dcb+14:[Windows][GCC 7.1.0][64 bit] Asuna 10bit
Encoding settings              : cpuid=1173503 / frame-threads=5 / numa-pools=+,+ / wpp / no-pmode / no-pme / no-psnr / no-ssim / log-level=2 / input-csp=1 / input-res=1920x1080 / interlace=0 / total-frames=129336 / level-idc=0 / high-tier=1 / uhd-bd=0 / ref=4 / no-allow-non-conformance / no-repeat-headers / annexb / no-aud / no-hrd / info / hash=0 / no-temporal-layers / no-open-gop / min-keyint=1 / keyint=360 / bframes=6 / b-adapt=2 / b-pyramid / bframe-bias=0 / rc-lookahead=80 / lookahead-slices=4 / scenecut=40 / no-intra-refresh / ctu=32 / min-cu-size=8 / no-rect / no-amp / max-tu-size=32 / tu-inter-depth=2 / tu-intra-depth=2 / limit-tu=4 / rdoq-level=2 / dynamic-rd=0.00 / no-ssim-rd / signhide / no-tskip / nr-intra=0 / nr-inter=0 / no-constrained-intra / no-strong-intra-smoothing / max-merge=3 / limit-refs=2 / limit-modes / me=3 / subme=4 / merange=44 / temporal-mvp / weightp / weightb / no-analyze-src-pics / deblock=-1:-1 / no-sao / no-sao-non-deblock / rd=4 / no-early-skip / rskip / no-fast-intra / no-tskip-fast / no-cu-lossless / b-intra / rdpenalty=1 / psy-rd=1.20 / psy-rdoq=1.00 / no-rd-refine / analysis-reuse-mode=0 / no-lossless / cbqpoffs=-2 / crqpoffs=-2 / rc=crf / crf=18.0000 / qcomp=0.65 / qpstep=4 / stats-write=0 / stats-read=0 / ipratio=1.40 / pbratio=1.20 / aq-mode=3 / aq-strength=0.70 / cutree / zone-count=0 / no-strict-cbr / qg-size=32 / no-rc-grain / qpmax=69 / qpmin=0 / no-const-vbv / sar=0 / overscan=0 / videoformat=5 / range=0 / colorprim=2 / transfer=2 / colormatrix=2 / chromaloc=0 / display-window=0 / max-cll=0,0 / min-luma=0 / max-luma=1023 / log2-max-poc-lsb=8 / vui-timing-info / vui-hrd-info / slices=1 / opt-qp-pps / opt-ref-list-length-pps / no-multi-pass-opt-rps / scenecut-bias=0.05 / no-opt-cu-delta-qp / no-aq-motion / no-hdr / no-hdr-opt / no-dhdr10-opt / analysis-reuse-level=5 / scale-factor=0 / refine-intra=0 / refine-inter=0 / refine-mv=0 / no-limit-sao / ctu-info=0
Default                        : Yes
Forced                         : No

Audio
ID                             : 2
Format                         : FLAC
Format/Info                    : Free Lossless Audio Codec
Codec ID                       : A_FLAC
Duration                       : 1 h 29 min
Bit rate mode                  : Variable
Bit rate                       : 961 kb/s
Channel(s)                     : 2 channels
Channel positions              : Front: L R
Sampling rate                  : 48.0 kHz
Frame rate                     : 10.417 FPS (4608 spf)
Bit depth                      : 24 bits
Stream size                    : 618 MiB (19%)
Writing library                : Lavf57.38.100
Language                       : Japanese
Default                        : Yes
Forced                         : No

Text
ID                             : 3
Format                         : PGS
Muxing mode                    : zlib
Codec ID                       : S_HDMV/PGS
Codec ID/Info                  : Picture based subtitle format used on BDs/HD-DVDs
Duration                       : 1 h 29 min
Bit rate                       : 218 kb/s
Count of elements              : 6273
Stream size                    : 139 MiB (4%)
Language                       : Japanese
Default                        : Yes
Forced                         : No
QQ图片20180202025309.jpg

片源自带一个外挂日文字幕,可以直接替换成简体中文

  1. magnet:?xt=urn:btih:KXY7GTRWIEPVFDBJCQ24NIKF3AUI4C5T&dn=%5BLoliHouse%5D+Mahouka+Koukou+no+Rettousei%3A+Hoshi+o+Yobu+Shoujo+-+Movie+%5BBD+1920x1080+HEVC+FLAC+10bit%5D&tr=http%3A%2F%2Fnyaa.tracker.wf%3A7777%2Fannounce&tr=udp%3A%2F%2Fopen.stealth.si%3A80%2Fannounce&tr=udp%3A%2F%2Ftracker.opentrackr.org%3A1337%2Fannounce&tr=udp%3A%2F%2Ftracker.coppersurfer.tk%3A6969%2Fannounce&tr=udp%3A%2F%2Ftracker.leechers-paradise.org%3A6969%2Fannounce
复制代码


字幕下载: [LoliHouse] Mahouka Koukou的Rettousei Hoshi o Yobu Shoujo - 电影[BDRip 1920x1080.rar (26.99 KB, 下载次数: 48)
欢迎光临IT技术交流论坛:http://bbs.itzmx.com/
回复

使用道具 举报

您需要登录后才可以回帖 登录 | 注册论坛 用百度帐号登录新浪微博账号登陆

本版积分规则

手机版|Archiver|Mail me|网站地图|IT技术交流论坛 ( 闽ICP备13013206号-7 )

GMT+8, 2018/12/12 14:16 , Processed in 0.272438 second(s), 45 queries , Gzip On, Memcache On.

Powered by itzmx!

© 2011-2018 sakura

快速回复 返回顶部 返回列表