设为首页收藏本站

 找回密码
 注册论坛

QQ登录

只需一步,快速开始

用百度帐号登录

只需两步,快速登录

新浪微博账号登陆

只需一步,快速开始

搜索
查看: 424|回复: 1

[日漫] [1080P] [百度]斩首循环 蓝色学者与戏言跟班[OVA 01-08Fin+SP][1920x1080][x265 10bit aac MP4][3.13g]

[复制链接]

签到天数: 30 天

[LV.5]常住居民I

发表于 2017/10/7 18:46 | 显示全部楼层 |阅读模式 |Firefox 56.0|Windows 10
天涯海角搜一下: 百度 谷歌 360 搜狗 有道 雅虎 必应 即刻

【Story】
漂浮在日本海的孤岛、鸦濡羽岛。那里,有着因岛的主人赤神伊利亚而建成的宅邸。各个领域的天才们被邀请至岛上做客。但在某天早上,在宅邸中发现了一具被斩首的无头尸体。而且,事件并没有就这样简单地结束。

【Staff】
原作:西尾维新《斩首循环-蓝色学者与戏言跟班》(讲谈社小说・讲谈社文库)
角色原案:竹
总监督:新房昭之
监督:八濑祐树
系列构成:东富耶子、新房昭之
剧本:木泽行人、中本宗応
角色设计、总作画监督:渡边明夫
总作画监督:铃木博文
印象板:okama
美术设定:大原盛仁
美术监督:内藤健
色彩设计:日比野仁、渡边康子
3D监督:越田祐史
3D制作:オレンジ
摄影监督:江上怜
编辑:松原理惠
音响监督:鹤冈阳太
音乐:梶浦由记
动画制作:SHAFT
制作:Aniplex、讲谈社、SHAFT

【Cast】
ぼく:梶裕贵
玖渚友:悠木碧
园山赤音:嶋村侑
伊吹加奈美:川澄绫子
逆木深夜:滨田贤二
姬菜真姬:远藤绫
佐代野弥生:池泽春菜
赤神伊梨亚:伊濑茉莉也
班田玲:桑岛法子
千贺明:桑谷夏子
千贺光:新谷良子
千贺照子:后藤邑子
哀川润:甲斐田裕子

这个是原盘自压。SP其实就是OP和ED,没其他的。为了防止百度傲娇,已经压缩,自带3%,请用WinRAR5以上版本解压。另外1-3没外挂字幕,求哪位大佬给个字幕了。

General
Complete name                  : N:\戏言\OVA01.mp4
Format                         : MPEG-4
Format profile                 : Base Media
Codec ID                       : isom (isom/iso2/mp41)
File size                      : 405 MiB
Duration                       : 27 min 10 s
Overall bit rate               : 2 084 kb/s
Writing application            : ShanaEncoder

Video
ID                             : 1
Format                         : HEVC
Format/Info                    : High Efficiency Video Coding
Format profile                 : Main 10@L4@Main
Codec ID                       : hev1
Codec ID/Info                  : High Efficiency Video Coding
Duration                       : 27 min 9 s
Bit rate                       : 1 759 kb/s
Width                          : 1 920 pixels
Height                         : 1 080 pixels
Display aspect ratio           : 16:9
Frame rate mode                : Constant
Frame rate                     : 23.976 (24000/1001) FPS
Color space                    : YUV
Chroma subsampling             : 4:2:0
Bit depth                      : 10 bits
Scan type                      : Progressive
Bits/(Pixel*Frame)             : 0.035
Stream size                    : 342 MiB (84%)
Writing library                : x265 2.4+37-e75d5f5eeae3:[Windows][GCC 4.9.2][64 bit] 10bit
Encoding settings              : cpuid=1173503 / frame-threads=5 / wpp / no-pmode / no-pme / no-psnr / no-ssim / log-level=2 / input-csp=1 / input-res=1920x1080 / interlace=0 / total-frames=0 / level-idc=0 / high-tier=1 / uhd-bd=0 / ref=4 / no-allow-non-conformance / no-repeat-headers / annexb / no-aud / no-hrd / info / hash=0 / no-temporal-layers / open-gop / min-keyint=24 / keyint=240 / bframes=8 / b-adapt=2 / b-pyramid / bframe-bias=0 / rc-lookahead=30 / lookahead-slices=4 / scenecut=40 / no-intra-refresh / ctu=64 / min-cu-size=8 / rect / amp / max-tu-size=32 / tu-inter-depth=2 / tu-intra-depth=2 / limit-tu=4 / rdoq-level=2 / dynamic-rd=0.00 / no-ssim-rd / signhide / no-tskip / nr-intra=0 / nr-inter=0 / no-constrained-intra / strong-intra-smoothing / max-merge=3 / limit-refs=2 / limit-modes / me=3 / subme=3 / merange=57 / temporal-mvp / weightp / weightb / no-analyze-src-pics / deblock=0:0 / sao / no-sao-non-deblock / rd=6 / no-early-skip / rskip / no-fast-intra / no-tskip-fast / no-cu-lossless / b-intra / rdpenalty=0 / psy-rd=0.00 / psy-rdoq=0.00 / no-rd-refine / analysis-mode=0 / no-lossless / cbqpoffs=0 / crqpoffs=0 / rc=crf / crf=21.0 / qcomp=0.60 / qpstep=4 / stats-write=0 / stats-read=0 / ipratio=1.40 / pbratio=1.30 / aq-mode=2 / aq-strength=1.00 / cutree / zone-count=0 / no-strict-cbr / qg-size=32 / no-rc-grain / qpmax=69 / qpmin=0 / sar=1 / overscan=0 / videoformat=5 / range=0 / colorprim=2 / transfer=2 / colormatrix=2 / chromaloc=0 / display-window=0 / max-cll=0,0 / min-luma=0 / max-luma=1023 / log2-max-poc-lsb=8 / vui-timing-info / vui-hrd-info / slices=1 / opt-qp-pps / opt-ref-list-length-pps / no-multi-pass-opt-rps / scenecut-bias=0.05 / no-opt-cu-delta-qp / no-aq-motion / no-hdr / no-hdr-opt / no-dhdr10-opt / refine-level=5 / scale-factor=0 / refine-intra=0 / refine-inter=0 / refine-mv=0 / no-limit-sao / ctu-info=0

Audio
ID                             : 2
Format                         : AAC
Format/Info                    : Advanced Audio Codec
Format profile                 : LC
Codec ID                       : 40
Duration                       : 27 min 10 s
Bit rate mode                  : Constant
Bit rate                       : 320 kb/s
Channel(s)                     : 2 channels
Channel positions              : Front: L R
Sampling rate                  : 48.0 kHz
Frame rate                     : 46.875 FPS (1024 SPF)
Compression mode               : Lossy
Stream size                    : 62.2 MiB (15%)
Default                        : Yes
Alternate group                : 1

链接:http://pan.baidu.com/s/1jHTtw38 密码:h7x0



解压密码:http://bbs.itzmx.com


喵的,第一次发帖就这样,附件点上去没反应啊!
欢迎光临IT技术交流论坛:http://bbs.itzmx.com/
回复

使用道具 举报

签到天数: 2537 天

[LV.Master]伴坛终老

 成长值: 22425
发表于 2017/10/8 01:17 | 显示全部楼层 |Google Chrome 60.0.3112.113|Windows 10
0.0
欢迎光临IT技术交流论坛:http://bbs.itzmx.com/
回复 支持 反对

使用道具 举报

您需要登录后才可以回帖 登录 | 注册论坛 用百度帐号登录新浪微博账号登陆

本版积分规则

手机版|Archiver|Mail me|网站地图|IT技术交流论坛 ( 闽ICP备13013206号-7 )

GMT+8, 2018/12/14 18:09 , Processed in 0.252546 second(s), 42 queries , Gzip On, Memcache On.

Powered by itzmx!

© 2011-2018 sakura

快速回复 返回顶部 返回列表